JIGSAW 2017 Movies 720p HDRip x264 AAC with Sample ☻rDX☻

  • Category Movies
  • Type HD
  • Language English
  • Total size 938.2 MB
  • Uploaded By nehalpuja
  • Downloads 230
  • Last checked 6 days ago
  • Date uploaded 1 week ago
  • Seeders 23
  • Leechers 21

Jigsaw

HorrorThriller

Dead bodies begin to turn up all over the city, each meeting their demise in a variety of grisly ways. All investigations begin to point the finger at deceased killer John Kramer.

Infohash : D1B25A6924BD32C4EEE586EEE5339A0E7AAE246F

JIGSAW 2017 Movies 720p HDRip x264 AAC with Sample ☻rDX☻
===============================================================================================

SCREEN SHOTS:



or

http://postimage.co.nr/2018/1/hotel/1.html

File size : 929 MiB
Duration : 1 h 31 min
Overall bit rate : 1 413 kb/s
Movie name : JIGSAW 2017 Movies 720p HDRip x264 AAC ☻rDX☻

Video
ID : 2
Format : AVC
Format/Info : Advanced Video Codec
Format profile : [email protected]
Format settings, CABAC : Yes
Format settings, ReFrames : 4 frames
Codec ID : V_MPEG4/ISO/AVC
Duration : 1 h 31 min
Bit rate : 1 300 kb/s
Width : 1 280 pixels
Height : 532 pixels
Display aspect ratio : 2.40:1
Frame rate mode : Constant
Frame rate : 23.976 (24000/1001) FPS
Color space : YUV
Chroma subsampling : 4:2:0
Bit depth : 8 bits
Scan type : Progressive
Bits/(Pixel*Frame) : 0.080
Stream size : 826 MiB (89%)
Title : ☻rDX☻
Writing library : x264

Audio
ID : 1
Format : MPEG Audio
Format version : Version 1
Format profile : Layer 3
Mode : Joint stereo
Codec ID : A_MPEG/L3
Codec ID/Hint : MP3
Duration : 1 h 31 min
Bit rate mode : Constant
Bit rate : 128 kb/s
Channel(s) : 2 channels
Sampling rate : 48.0 kHz
Compression mode : Lossy
Delay relative to video : -23 ms
Stream size : 84.2 MiB (9%)
Title : ☻rDX☻
Language : English
Default : Yes
Forced : No



IMDB : http://www.imdb.com/title/tt3348730

Files:

JIGSAW 2017 Movies 720p HDRip x264 AAC with Sample ☻rDX☻
  • Sample ~ JIGSAW 2017 Movies 720p HDRip x264 AAC ☻rDX☻.mkv (9.3 MB)
  • JIGSAW 2017 Movies 720p HDRip x264 AAC ☻rDX☻.mkv (928.9 MB)

There are currently no comments. Feel free to leave one :)

Code:

  • udp://tracker.coppersurfer.tk:6969/announce
  • udp://tracker.openbittorrent.com:80/announce
  • udp://glotorrents.pw:6969/announce
  • udp://tracker.publicbt.com:80/announce
  • http://retracker.krs-ix.ru/announce
  • udp://tracker.pomf.se:80/announce
  • udp://explodie.org:6969/announce
  • http://mgtracker.org:2710/announce
  • http://tracker.aletorrenty.pl:2710/announce
  • http://tracker.btcake.com/announce
  • udp://tracker.openbittorrent.com:80/announce
  • udp://tracker.leechers-paradise.org:6969/announce
  • udp://coppersurfer.tk:6969/announce